<?xml version="1.0" standalone="no"?>
<!DOCTYPE svg PUBLIC "-//W3C//DTD SVG 1.1//EN" "http://www.w3.org/Graphics/SVG/1.1/DTD/svg11.dtd" >
<svg xmlns="http://www.w3.org/2000/svg">
<metadata>Generated by IcoMoon</metadata>
<defs>
<font id="icomoon" horiz-adv-x="1024">
<font-face units-per-em="1024" ascent="960" descent="-64" />
<missing-glyph horiz-adv-x="1024" />
<glyph unicode="&#x20;" horiz-adv-x="512" d="" />
<glyph unicode="&#xe900;" glyph-name="youtube" d="M1001.344 707.029l1.28-8.363c-12.373 43.904-45.781 77.781-88.235 90.112l-0.896 0.213c-79.829 21.675-401.067 21.675-401.067 21.675s-320.427 0.427-401.067-21.675c-43.264-12.544-76.715-46.421-88.875-89.429l-0.213-0.896c-29.824-155.776-30.037-342.955 1.323-509.739l-1.323 8.448c12.373-43.904 45.781-77.781 88.235-90.112l0.896-0.213c79.744-21.717 401.067-21.717 401.067-21.717s320.384 0 401.067 21.717c43.307 12.544 76.757 46.421 88.917 89.429l0.213 0.896c13.568 72.448 21.333 155.819 21.333 240.981 0 3.115 0 6.272-0.043 9.429 0.043 2.901 0.043 6.357 0.043 9.813 0 85.205-7.765 168.576-22.656 249.429zM409.941 292.224v311.168l267.349-155.819z" />
<glyph unicode="&#xe901;" glyph-name="dust" d="M1004-24h-88v26.563c0 11.047-8.953 20-20 20s-20-8.953-20-20v-26.563h-344v26.563c0 11.047-8.953 20-20 20s-20-8.953-20-20v-26.563h-344v26.563c0 11.047-8.953 20-20 20s-20-8.953-20-20v-26.563h-88c-11.047 0-20-8.953-20-20s8.953-20 20-20h984c11.047 0 20 8.953 20 20s-8.953 20-20 20zM20 64c5.258 0 10.422 2.141 14.141 5.859s5.859 8.883 5.859 14.141-2.141 10.422-5.859 14.141c-3.719 3.719-8.883 5.859-14.141 5.859s-10.422-2.141-14.141-5.859c-3.719-3.719-5.859-8.883-5.859-14.141s2.141-10.422 5.859-14.141c3.719-3.719 8.883-5.859 14.141-5.859zM825.953 221.398h11.898c-188.344-156.172-463.359-156.172-651.703 0h11.898c11.047 0 20 8.953 20 20 0 11.039-8.953 20-20 20h-62.797c-11.047 0-20-8.961-20-20v-62.797c0-11.039 8.953-20 20-20s20 8.961 20 20v16.477c45.273-38.586 95.828-69.18 149.945-91.078h-205.195c-11.047 0-20-8.953-20-20 0-11.039 8.953-20 20-20h200.258v-26.563c0-11.039 8.953-20 20-20 11.039 0 20 8.961 20 20v26.563h344v-26.563c0-11.047 8.953-20 20-20 11.039 0 20 8.953 20 20v26.563h279.742c11.047 0 20 8.953 20 20s-8.953 20-20 20h-285.195c54.117 21.898 104.672 52.492 149.945 91.078v-16.477c0-11.047 8.953-20 20-20s20 8.953 20 20v62.789c0 11.047-8.953 20-20 20h-62.797c-11.047 0-20-8.953-20-20 0-11.039 8.953-19.992 20-19.992zM56.445 742.125c3.703-6.414 10.422-10 17.336-10 3.391 0 6.836 0.859 9.984 2.68l24.234 13.992v-27.984c0-11.047 8.953-20 20-20s20 8.953 20 20v27.984l24.234-13.992c3.148-1.82 6.586-2.68 9.984-2.68 6.914 0 13.633 3.586 17.336 10 5.523 9.563 2.25 21.797-7.32 27.32l-24.234 13.992 24.234 13.992c9.57 5.523 12.844 17.75 7.32 27.32-5.523 9.563-17.758 12.844-27.32 7.32l-24.234-13.992v27.984c0 11.047-8.953 20-20 20s-20-8.953-20-20v-27.984l-24.234 13.992c-9.563 5.523-21.797 2.242-27.32-7.32s-2.25-21.797 7.32-27.32l24.234-13.992-24.234-13.992c-9.563-5.523-12.844-17.758-7.32-27.32zM856.852 479.867c3.703-6.422 10.43-10.008 17.336-10.008 3.391 0 6.836 0.867 9.984 2.688l24.234 13.992v-27.984c0-11.047 8.953-20 20-20s20 8.953 20 20v27.984l24.234-13.992c3.156-1.82 6.594-2.688 9.984-2.688 6.914 0 13.633 3.586 17.336 10.008 5.523 9.563 2.25 21.797-7.32 27.32l-24.234 13.992 24.234 13.992c9.57 5.516 12.844 17.75 7.32 27.313-5.516 9.57-17.75 12.852-27.32 7.32l-24.234-13.992v27.984c0 11.047-8.953 20-20 20s-20-8.953-20-20v-27.984l-24.234 13.992c-9.563 5.523-21.797 2.25-27.32-7.32-5.523-9.563-2.242-21.797 7.32-27.313l24.234-13.992-24.234-13.992c-9.563-5.523-12.844-17.758-7.32-27.32zM315 373.703c0-5.266 2.141-10.422 5.859-14.141s8.883-5.859 14.141-5.859 10.422 2.141 14.141 5.859c3.719 3.719 5.859 8.875 5.859 14.141 0 5.258-2.141 10.422-5.859 14.141s-8.883 5.859-14.141 5.859-10.422-2.141-14.141-5.859c-3.719-3.719-5.859-8.883-5.859-14.141zM937.859 369.156c-3.719-3.734-5.859-8.875-5.859-14.133 0-5.281 2.141-10.422 5.859-14.141 3.719-3.742 8.883-5.859 14.141-5.859s10.422 2.117 14.141 5.859c3.719 3.719 5.859 8.859 5.859 14.141 0 5.258-2.141 10.398-5.859 14.133-3.719 3.727-8.883 5.867-14.141 5.867s-10.422-2.141-14.141-5.867zM56 322.82c5.258 0 10.422 2.141 14.141 5.859s5.859 8.883 5.859 14.141c0 5.281-2.141 10.422-5.859 14.141s-8.883 5.859-14.141 5.859-10.422-2.141-14.141-5.859c-3.719-3.719-5.859-8.883-5.859-14.141s2.141-10.422 5.859-14.141c3.719-3.719 8.883-5.859 14.141-5.859zM311.344 645.641c5.258 0 10.398 2.141 14.133 5.859 3.727 3.719 5.867 8.883 5.867 14.141s-2.141 10.422-5.867 14.141c-3.719 3.719-8.875 5.859-14.133 5.859-5.281 0-10.422-2.141-14.141-5.859-3.742-3.719-5.859-8.883-5.859-14.141s2.117-10.422 5.859-14.141c3.719-3.719 8.875-5.859 14.141-5.859zM768 794.742c5.258 0 10.422 2.141 14.141 5.859 3.719 3.742 5.859 8.875 5.859 14.141 0 5.281-2.141 10.414-5.859 14.156-3.719 3.719-8.883 5.844-14.141 5.844s-10.422-2.125-14.141-5.844c-3.719-3.742-5.859-8.875-5.859-14.156 0-5.266 2.141-10.398 5.859-14.141 3.719-3.719 8.883-5.859 14.141-5.859zM721.133 331.742c37.5 0 68 30.508 68 68 0 37.5-30.5 68-68 68-37.492 0-68-30.5-68-68 0-37.492 30.508-68 68-68zM721.133 427.742c15.438 0 28-12.555 28-28 0-15.438-12.563-28-28-28s-28 12.563-28 28c0 15.445 12.563 28 28 28zM560 824c37.492 0 68 30.508 68 68s-30.508 68-68 68-68-30.508-68-68 30.508-68 68-68zM560 920c15.438 0 28-12.563 28-28s-12.563-28-28-28-28 12.563-28 28 12.563 28 28 28zM108 496c0-37.492 30.508-68 68-68s68 30.508 68 68-30.508 68-68 68-68-30.508-68-68zM204 496c0-15.438-12.563-28-28-28s-28 12.563-28 28 12.563 28 28 28 28-12.563 28-28zM506.742 592.391c30.609 0 55.508 24.898 55.508 55.5 0 8.547 6.953 15.508 15.5 15.508 30.609 0 55.508 24.898 55.508 55.5 0 11.047-8.953 20-20 20s-20-8.953-20-20c0-8.547-6.961-15.5-15.508-15.5-30.602 0-55.5-24.906-55.5-55.508 0-8.547-6.961-15.5-15.508-15.5-11.047 0-20-8.953-20-20s8.953-20 20-20zM405.484 247.187c30.609 0 55.508 24.898 55.508 55.508 0 8.547 6.953 15.5 15.5 15.5 30.609 0 55.508 24.898 55.508 55.508 0 11.039-8.953 20-20 20s-20-8.961-20-20c0-8.547-6.961-15.508-15.508-15.508-30.602 0-55.5-24.898-55.5-55.5 0-8.555-6.961-15.508-15.508-15.508-11.047 0-20-8.953-20-20s8.953-20 20-20z" />
<glyph unicode="&#xe902;" glyph-name="temperature" d="M688.664 351.694l0.688 434.774c0 96.789-79.11 175.532-176.352 175.532-97.235 0-176.344-78.742-176.344-175.578l0.094-61.945h-19.711c-16.563 0-30-13.43-30-30s13.438-30 30-30h19.805l0.094-60h-19.898c-16.563 0-30-13.43-30-30s13.438-30 30-30h19.992l0.102-60h-20.094c-16.57 0-30-13.43-30-30s13.43-30 30-30h20.188l0.109-72.774c-44.774-45.742-69.336-105.781-69.336-169.93 0-65.524 25.758-127.016 72.531-173.141 46.274-45.633 107.383-70.633 172.43-70.633 1.18 0 2.359 0.008 3.539 0.023 63.867 0.891 124.094 26.32 169.586 71.594 45.531 45.328 71.070 105.321 71.891 168.946 0.836 64.406-24.336 127.055-69.313 173.133zM697.985 179.334c-1.281-98.602-83.070-179.938-182.321-181.321-50.195-0.727-97.414 18.242-133 53.336-35.25 34.766-54.664 81.078-54.664 130.422 0 50.274 20.055 97.211 56.461 132.164 8.203 7.867 12.898 18.859 12.891 30.148l-0.125 80.391h20.008c16.57 0 30 13.438 30 30 0 16.57-13.43 30-30 30h-20.102l-0.102 60h20.203c16.57 0 30 13.438 30 30 0 16.57-13.43 30-30 30h-20.297l-0.094 60h20.391c16.57 0 30 13.438 30 30 0 16.57-13.43 30-30 30h-20.484l-0.094 61.992c0 63.703 52.188 115.531 116.344 115.531s116.352-51.828 116.352-115.485l-0.703-442.446c-0.008-11.273 4.688-22.25 12.883-30.125l0.008-0.008c37.063-35.578 57.109-83.383 56.445-134.602zM543 303.241v482.767c0 16.563-13.43 30-30 30s-30-13.438-30-30v-482.767c-56.274-13.547-98.211-64.297-98.211-124.672 0-70.695 57.516-128.203 128.211-128.203s128.211 57.516 128.211 128.203c0 60.375-41.938 111.133-98.211 124.672zM513 110.366c-37.609 0-68.211 30.594-68.211 68.203 0 37.617 30.602 68.211 68.211 68.211s68.211-30.594 68.211-68.211c0-37.609-30.602-68.203-68.211-68.203z" />
<glyph unicode="&#xe903;" glyph-name="pressure" d="M512.001 851.426c-282.32 0-512.001-216.31-512.001-482.191 0-113.837 42.929-224.342 120.877-311.165 7.699-8.578 18.724-13.493 30.248-13.493h721.753c11.523 0 22.551 4.918 30.25 13.493 77.948 86.821 120.875 197.331 120.875 311.165-0.002 265.883-229.681 482.191-512.001 482.191zM806.282 275.18c-4.147 2.064-8.575 3.115-13.157 3.115-11.316 0-21.476-6.286-26.518-16.4-3.52-7.075-4.082-15.091-1.571-22.585 2.508-7.494 7.787-13.563 14.861-17.083l105.538-52.555c-8.215-13.353-17.241-26.283-27.081-38.672l-4.068-5.118h-684.57l-4.070 5.118c-10.843 13.651-18.776 25.156-27.092 38.692l105.554 52.537c7.072 3.52 12.351 9.59 14.859 17.083 2.511 7.491 1.952 15.513-1.571 22.585-5.039 10.117-15.202 16.405-26.515 16.405-4.584 0-9.008-1.050-13.153-3.115l-106.255-52.922c-19.732 46.671-30.173 96.726-30.173 146.976 0 18.485 1.382 36.675 3.996 54.502l102.615-15.609c1.485-0.23 2.997-0.343 4.503-0.343 14.462 0 27.011 10.807 29.193 25.138 2.452 16.123-8.672 31.239-24.798 33.696l-98.277 14.949c21.027 66.936 60.342 126.667 112.552 174.185l71.079-73.093c5.619-5.781 13.151-8.963 21.212-8.963 7.746 0 15.066 2.975 20.617 8.375 5.668 5.51 8.848 12.896 8.959 20.798s-2.862 15.373-8.37 21.039l-66.817 68.71c63.842 43.601 141.001 71.236 224.653 76.546v-100.355c0-16.313 13.272-29.585 29.583-29.585s29.58 13.272 29.58 29.585v100.352c83.652-5.31 160.816-32.945 224.658-76.546l-66.819-68.712c-5.506-5.666-8.483-13.137-8.368-21.039 0.11-7.899 3.288-15.285 8.954-20.793 5.555-5.402 12.88-8.377 20.622-8.377 8.059 0 15.591 3.182 21.212 8.961l71.076 73.093c52.21-47.516 91.527-107.247 112.55-174.183l-98.275-14.951c-16.123-2.454-27.252-17.57-24.796-33.693 2.179-14.329 14.728-25.138 29.193-25.138 1.506 0 3.016 0.115 4.489 0.338l102.629 15.614c2.614-17.827 3.996-36.015 3.996-54.505 0-50.261-10.446-100.33-30.189-147.009l-106.23 52.954zM528.857 382.201l-92.834 206.078c-2.022 4.498-7.020 7.072-11.992 5.873-5.619-1.355-9.078-7.007-7.724-12.625l52.936-219.733c-13.029-15.7-17.816-37.606-10.726-58.32 10.829-31.631 45.251-48.496 76.882-37.669 31.636 10.831 48.498 45.253 37.669 76.884-7.088 20.716-24.295 35.095-44.212 39.513z" />
<glyph unicode="&#xe904;" glyph-name="humidity" d="M663.523 101.992c15.453-15.773 15.203-41.102-0.578-56.563-72.016-70.563-168.945-109.43-272.945-109.43-104.234 0-202.133 40.172-275.656 113.117-73.734 73.156-114.344 170.773-114.344 274.883v10.719c0 135.133 112.922 264.719 212.547 379.047 67.578 77.547 137.453 157.742 137.453 206.234 0 22.094 17.906 40 40 40s40-17.906 40-40c0-51.672 70.875-132.289 139.406-210.258 12.469-14.18 25.359-28.844 38.102-43.617 14.43-16.727 12.563-41.984-4.156-56.414-16.727-14.43-41.984-12.57-56.422 4.164-12.492 14.484-25.258 29.008-37.602 43.047-46.961 53.422-90.398 102.836-120.023 150.094-29.148-45.633-71.141-93.813-116.445-145.805-90.398-103.742-192.859-221.328-192.859-326.492v-10.719c0-169.828 139.063-308 310-308 82.938 0 159.984 30.742 216.953 86.57 15.781 15.461 41.102 15.203 56.57-0.578zM984 250c-15.422 0-36.352 14.469-57.422 39.695-17.148 20.531-42.875 32.305-70.578 32.305s-53.43-11.773-70.578-32.305c-21.070-25.227-42-39.695-57.422-39.695s-36.352 14.469-57.422 39.695c-17.148 20.531-42.875 32.305-70.578 32.305s-53.43-11.773-70.578-32.305c-21.070-25.227-42-39.695-57.422-39.695s-36.352 14.469-57.422 39.695c-17.148 20.531-42.875 32.305-70.578 32.305s-53.43-11.773-70.578-32.305c-21.070-25.227-42-39.695-57.422-39.695-22.094 0-40-17.906-40-40s17.906-40 40-40c40.93 0 80.906 23.016 118.82 68.414 1.883 2.242 5.313 3.586 9.18 3.586s7.297-1.344 9.18-3.594c37.914-45.391 77.891-68.406 118.82-68.406s80.906 23.016 118.82 68.414c1.883 2.242 5.313 3.586 9.18 3.586s7.297-1.344 9.18-3.594c37.914-45.391 77.891-68.406 118.82-68.406s80.906 23.016 118.82 68.414c1.883 2.242 5.313 3.586 9.18 3.586s7.297-1.344 9.18-3.594c37.914-45.391 77.891-68.406 118.82-68.406 22.094 0 40 17.906 40 40s-17.906 40-40 40zM529.422 489.695c-21.070-25.227-42-39.695-57.422-39.695-22.094 0-40-17.906-40-40s17.906-40 40-40c40.93 0 80.906 23.016 118.82 68.414 1.883 2.242 5.313 3.586 9.18 3.586s7.297-1.344 9.18-3.594c37.914-45.391 77.891-68.406 118.82-68.406s80.906 23.016 118.82 68.414c1.883 2.242 5.313 3.586 9.18 3.586s7.297-1.344 9.18-3.594c37.914-45.391 77.891-68.406 118.82-68.406 22.094 0 40 17.906 40 40s-17.906 40-40 40c-15.422 0-36.352 14.469-57.422 39.695-17.148 20.531-42.875 32.305-70.578 32.305s-53.43-11.773-70.578-32.305c-21.070-25.227-42-39.695-57.422-39.695s-36.352 14.469-57.422 39.695c-17.148 20.531-42.875 32.305-70.578 32.305s-53.43-11.773-70.578-32.305z" />
<glyph unicode="&#xe905;" glyph-name="ozone" d="M60 447.102l-60-0.058c0.020-19.824 1.188-39.804 3.472-59.384l59.596 6.952c-2.020 17.302-3.050 34.962-3.068 52.49zM13.55 565.082c-4.518-19.234-7.952-38.968-10.206-58.652l59.612-6.824c1.99 17.372 5.018 34.786 9.004 51.758l-58.41 13.718zM54.108 676.908c-8.884-17.71-16.81-36.118-23.556-54.716l56.404-20.46c5.95 16.406 12.942 32.646 20.78 48.27l-53.628 26.906zM205.706 857.904c-15.832-11.838-31.146-24.732-45.516-38.328l41.234-43.586c12.696 12.012 26.226 23.404 40.21 33.86l-35.928 48.054zM119.398 776.25c-12.714-15.172-24.666-31.242-35.528-47.76l50.136-32.96c9.592 14.59 20.15 28.782 31.38 42.182l-45.988 38.538zM308.474 917.53c-18.134-7.864-36.006-16.888-53.122-26.82l30.118-51.894c15.104 8.766 30.876 16.73 46.876 23.668l-23.872 55.046zM817.066 858.814l-35.784-48.162c14.022-10.418 27.586-21.772 40.318-33.746l41.108 43.706c-14.412 13.554-29.768 26.408-45.642 38.202zM422.338 951.756c-19.5-3.446-38.992-8.078-57.934-13.772l17.272-57.46c16.706 5.020 33.9 9.108 51.102 12.148l-10.44 59.084zM1010.068 566.676l-58.366-13.908c4.042-16.956 7.126-34.36 9.17-51.728l59.588 7.014c-2.316 19.68-5.812 39.402-10.392 58.622zM903.626 777.41l-45.876-38.672c11.268-13.366 21.864-27.522 31.492-42.076l50.040 33.108c-10.904 16.48-22.9 32.508-35.656 47.64zM714.046 918.168l-23.698-55.122c16.034-6.894 31.844-14.814 46.992-23.544l29.958 51.988c-17.164 9.89-35.080 18.868-53.252 26.678zM481.448 958.69l3.526-59.896c17.384 1.022 35.176 1.050 52.608 0.082l3.334 59.908c-19.702 1.094-39.814 1.062-59.468-0.094zM600.048 952.038l-10.252-59.118c17.214-2.986 34.422-7.018 51.142-11.984l17.084 57.518c-18.958 5.63-38.462 10.202-57.974 13.584zM969.178 678.32l-53.544-27.074c7.884-15.596 14.924-31.806 20.922-48.184l56.34 20.634c-6.8 18.568-14.782 36.946-23.718 54.624zM590.744 2.418c-17.154-3.014-34.718-5.054-52.202-6.066l3.466-59.9c19.794 1.146 39.682 3.456 59.116 6.87l-10.38 59.096zM691.212 32.498c-16.032-6.93-32.636-12.982-49.352-17.988l17.21-57.478c18.952 5.674 37.778 12.536 55.952 20.394l-23.81 55.072zM858.302 157.094c-11.232-13.378-23.372-26.244-36.080-38.24l41.188-43.63c14.384 13.58 28.126 28.142 40.84 43.284l-45.948 38.586zM781.974 85.038c-14.006-10.45-28.764-20.18-43.862-28.92l30.060-51.926c17.1 9.9 33.816 20.92 49.678 32.752l-35.876 48.094zM1023.996 448.698l-60-0.172 0.002-0.94c0-17.538-1.014-35.2-3.012-52.496l59.604-6.888c2.262 19.574 3.41 39.554 3.41 59.47l-0.004 1.026zM916.044 244.742c-7.846-15.594-16.7-30.902-26.318-45.498l50.102-33.014c10.896 16.536 20.926 33.88 29.816 51.548l-53.6 26.964zM951.922 343.344c-4.010-17.002-9.074-33.942-15.046-50.354l56.382-20.52c6.772 18.608 12.512 37.816 17.060 57.090l-58.396 13.784zM333.206 32.318l-23.756-55.098c18.192-7.842 37.034-14.688 56.002-20.344l17.146 57.498c-16.728 4.988-33.346 11.026-49.392 17.944zM165.934 156.804l-45.914-38.626c12.73-15.132 26.482-29.682 40.874-43.246l41.152 43.664c-12.716 11.984-24.864 24.838-36.112 38.208zM108.148 244.356l-53.574-27.016c8.898-17.642 18.938-34.964 29.842-51.482l50.074 33.054c-9.628 14.584-18.49 29.874-26.342 45.444zM242.328 84.81l-35.836-48.124c15.882-11.826 32.616-22.838 49.736-32.728l30.014 51.954c-15.114 8.732-29.89 18.456-43.914 28.898zM433.726 2.332l-10.314-59.106c19.44-3.392 39.332-5.682 59.122-6.806l3.402 59.904c-17.48 0.992-35.046 3.014-52.21 6.008zM72.18 342.874l-58.38-13.846c4.568-19.26 10.326-38.452 17.112-57.042l56.362 20.578c-5.986 16.396-11.064 33.322-15.094 50.31zM511.998 849.568c-221.654 0-401.982-180.328-401.982-401.982s180.328-401.982 401.982-401.982 401.982 180.33 401.982 401.982c0 221.654-180.328 401.982-401.982 401.982zM643.744 699.304c-5.032 17.612 3.988 40.946 13.206 57.974 110.528-51.938 188.906-161.332 196.416-289.472-16.338-3.822-41.556-2.7-73.096 24.686-27.18 23.6-44.298 53.916-44.436 54.164l-2.51 4.536-3.888 3.43c-14.402 12.71-51.342 41.010-83.284 29.408-9.572-3.48-26.248-13.386-30.386-40.658l-0.126-0.78c-0.178-1.056-0.722-4.27-4.9-5.296-2.888-0.71-5.278 0.144-7.1 2.544-12.662 16.662-18.78 32.29-17.23 44.002 1.18 8.918 9.158 16.68 22.156 28.402 19.014 17.148 47.748 43.064 35.178 87.060zM511.998 105.606c-176.938 0-322.918 135.072-340.254 307.52l30.7-4.064c2.508-8.072 5.81-17.714 9.832-27.342 17.528-41.958 40.324-61.69 67.77-58.636 70.622 7.848 114.802 47.954 121.214 110.040 0.262 2.534 0.644 4.294 0.98 5.456 3.276-0.192 9.912-1.532 20.106-6.334 7.18-3.382 12.668-9.7 15.052-17.336 5.856-18.748 4.642-32.842-3.61-41.896-29.73-32.62-43.236-80.376-32.848-116.138 6.534-22.488 22.478-38.71 43.746-44.51 21.778-5.94 53.292-19.12 76.428-38.294 23.124-19.166 34.296-40.824 33.884-65.77-14.088-1.776-28.438-2.696-43-2.696zM614.68 121.364c-3.066 37.46-21.726 71.094-55.278 98.902-38.382 31.81-85.424 46.3-98.928 49.984-0.29 0.078-0.428 0.144-0.44 0.144-0.458 0.434-2.172 3.31-2.482 9.898-0.782 16.642 7.682 38.15 20.582 52.304 22.974 25.206 28.848 60.792 16.536 100.204-7.378 23.624-24.42 43.208-46.756 53.726-30.552 14.392-56.198 15.956-76.22 4.656-11.992-6.768-26.952-21.266-30.114-51.894-1.228-11.882-4.882-47.294-62.502-55.838-7.37 9.012-18.246 35.804-23.856 59.594l-4.724 20.184-79.486 10.52c13.406 176.394 161.22 315.822 340.99 315.822 30.43 0 59.934-4.016 88.036-11.51-12.514-25.338-23.83-60.764-13.98-95.234 1.74-6.090 1.382-8.836-17.672-26.020-15.738-14.194-37.29-33.632-41.454-65.088-3.692-27.908 6.314-58.396 28.938-88.174 16.398-21.58 42.914-30.97 69.196-24.508 22.67 5.572 40 21.704 47.156 43.18 4.508-2.644 9.614-6.142 14.154-9.772 7.008-11.48 25.758-39.866 53.25-64.108 31.608-27.872 65.626-42.034 99.462-42.032 4.162 0 8.32 0.228 12.472 0.658-16.036-134.818-110.79-245.822-236.88-285.598z" />
<glyph unicode="&#xe906;" glyph-name="contamination" d="M857.015 564.352h-25.75v179.531c0 119.172-96.945 216.117-216.117 216.117h-207.906c-119.164 0-216.109-96.945-216.109-216.117v-179.531h-25.039c-40.859 0-74.094-33.234-74.094-74.086v-47.406c0-60 43.734-109.429 101.742-117.773 8.586-64.219 38.359-123.554 84.859-169.093v-168.867c0-28.187 22.93-51.125 51.125-51.125h362.945c28.187 0 51.125 22.937 51.125 51.125v168.882c46.125 45.234 76.203 104.758 84.851 168.992 26.055 3.617 50.078 15.719 68.703 34.828 21.766 22.352 33.758 51.836 33.758 83.031v47.406c0 40.851-33.242 74.086-74.094 74.086zM221.29 743.883c0 102.539 83.422 185.961 185.953 185.961h207.906c102.539 0 185.961-83.422 185.961-185.961v-49.617c-12.969 24.961-29.961 48.008-50.633 68.344-5.93 5.836-15.484 5.758-21.32-0.172-5.844-5.945-5.766-15.492 0.172-21.328 46.289-45.531 71.773-106.359 71.773-171.273v-9.797l-125.929-105.844c-4.141 5.711-8.516 11.258-13.141 16.609-40.883 47.359-93.844 73.445-149.133 73.445-55.297 0-108.258-26.086-149.14-73.445-5.102-5.906-9.906-12.055-14.422-18.391l-128.054 107.625v9.797c0 132.468 107.773 240.234 240.242 240.234h99.344c41.461 0 82.32-10.719 118.164-31.016 7.25-4.102 16.453-1.555 20.547 5.695 4.109 7.242 1.555 16.445-5.687 20.547-40.375 22.852-86.367 34.93-133.023 34.93h-99.344c-104.429 0-195.211-59.492-240.242-146.367v50.023zM512.898 514.095c102.844 0 179.687-106.664 179.687-202.039 0-94.797-73.89-161-179.687-161s-179.695 66.203-179.695 161c0 95.375 76.851 202.039 179.695 202.039zM696.687 155.173c-6.656-5.008-8-14.461-3-21.117 2.969-3.945 7.492-6.023 12.070-6.023 2.719 0 5.437 0.781 7.883 2.289v-143.195c0-11.562-9.406-20.969-20.969-20.969h-362.945c-11.562 0-20.969 9.406-20.969 20.969v143.086c50-37.203 110.609-57.422 173.625-57.422h57.633c39.656 0 78.109 7.836 114.297 23.289 7.656 3.273 11.211 12.133 7.937 19.789-3.266 7.656-12.133 11.211-19.781 7.945-32.422-13.844-66.89-20.867-102.453-20.867h-57.633c-136.062 0-247.843 102.062-260.015 237.398 0 0.047-0.008 0.086-0.016 0.125-0.695 7.812-1.062 130.273-1.062 130.273 0 8.328-6.75 15.078-15.078 15.078s-15.078-6.75-15.078-15.078c0 0 0.039-111.922 0.109-114.531-39.836 8.945-69.078 44.258-69.078 86.656v47.398c0 24.227 19.703 43.93 43.93 43.93h39.078l128.023-107.594c-19.453-35.672-30.148-75.508-30.148-114.547 0-110.765 88.258-191.156 209.851-191.156s209.851 80.398 209.851 191.156c0 39.75-11.086 80.328-31.227 116.492l109.586 92.101s-0.367-172.382-1.062-180.195c-0.008-0.047-0.016-0.086-0.016-0.125-6.602-73.273-44.266-140.765-103.344-185.156zM900.945 442.868c0-42.766-29.555-78.164-69.789-86.812 0.070 2.664 0.109 178.14 0.109 178.14h25.75c24.227 0 43.93-19.711 43.93-43.93zM407.414 541.235c0-19.984-16.203-36.187-36.187-36.187s-36.18 16.203-36.18 36.187c0 19.984 16.195 36.187 36.18 36.187s36.187-16.203 36.187-36.187zM690.75 541.235c0-19.984-16.203-36.187-36.187-36.187s-36.18 16.203-36.18 36.187c0 19.984 16.195 36.187 36.18 36.187s36.187-16.203 36.187-36.187z" />
<glyph unicode="&#xe907;" glyph-name="carbon" d="M768.794 597.838c-13.088 54.744-42.866 104.464-85.578 142.144-50.196 44.282-114.738 68.668-181.74 68.668-151.548 0-274.842-123.294-274.842-274.842 0-2.352 0.030-4.704 0.090-7.060-2.326 0.076-4.648 0.112-6.97 0.112-121.172 0-219.754-98.58-219.754-219.756 0-121.174 98.582-219.756 219.756-219.756h549c140.742 0 255.244 114.502 255.244 255.244 0 140.736-114.476 255.232-255.206 255.246zM768.756 147.35h-549c-88.090 0-159.756 71.666-159.756 159.754s71.666 159.756 159.756 159.756c11.346 0 22.79-1.234 34.010-3.666l43.36-9.398-7.43 43.74c-2.030 11.958-3.060 24.162-3.060 36.27 0 118.464 96.378 214.842 214.842 214.842 107.232 0 198.772-80.016 212.928-186.126l3.872-29.020 29.106 3.164c7.13 0.776 14.32 1.168 21.372 1.168 107.658 0 195.244-87.586 195.244-195.244s-87.586-195.24-195.244-195.24zM464.244 321.536c-2.378-5.84-5.508-10.758-9.398-14.754-3.89-4.002-8.16-7.244-12.804-9.726-4.65-2.486-9.512-4.326-14.588-5.51-5.080-1.19-9.998-1.782-14.75-1.782-9.294 0-17.666 1.888-25.122 5.672-7.456 3.778-13.832 8.914-19.126 15.398-5.298 6.484-9.35 13.938-12.156 22.368-2.812 8.428-4.214 17.18-4.214 26.256 0 8.428 1.186 16.744 3.566 24.96 2.376 8.21 6.048 15.56 11.022 22.042 4.968 6.484 11.234 11.776 18.8 15.884 7.562 4.102 16.42 6.16 26.58 6.16 4.752 0 9.614-0.486 14.588-1.458 4.968-0.972 9.83-2.704 14.586-5.186 4.752-2.486 9.126-5.728 13.128-9.724 3.996-4 7.292-9.026 9.886-15.074l40.844 28.526c-7.78 14.912-19.612 27.012-35.494 36.306-15.884 9.29-34.634 13.94-56.242 13.94-18.152 0-34.36-3.354-48.624-10.050-14.262-6.7-26.368-15.454-36.306-26.256-9.942-10.808-17.504-23.072-22.692-36.792-5.186-13.726-7.78-27.504-7.78-41.33 0-14.7 2.756-29.174 8.266-43.438 5.51-14.262 13.29-27.016 23.34-38.25 10.048-11.24 22.042-20.26 35.982-27.068 13.938-6.806 29.224-10.21 45.87-10.21 9.506 0 19.232 1.19 29.174 3.566 9.938 2.376 19.338 5.834 28.202 10.374 8.858 4.538 16.694 10.156 23.502 16.856 6.806 6.696 11.938 14.262 15.398 22.692l-43.438 25.608zM739.46 401.598c-5.406 14.048-13.080 26.582-23.016 37.604-9.942 11.022-21.936 19.88-35.982 26.58-14.050 6.696-29.61 10.050-46.68 10.050-16.644 0-31.986-3.192-46.030-9.564-14.050-6.376-26.208-14.91-36.468-25.608-10.266-10.698-18.264-23.072-23.988-37.116-5.728-14.050-8.59-28.638-8.59-43.762 0-14.912 2.756-29.392 8.266-43.438 5.51-14.050 13.234-26.53 23.178-37.44 9.938-10.916 21.93-19.724 35.982-26.42 14.044-6.702 29.606-10.050 46.678-10.050 16.638 0 31.98 3.242 46.032 9.726 14.046 6.482 26.146 15.074 36.306 25.77 10.156 10.698 18.098 23.066 23.826 37.116 5.724 14.046 8.59 28.632 8.59 43.762 0 14.476-2.704 28.74-8.104 42.79zM689.7 334.334c-2.488-8.322-6.214-15.778-11.184-22.366-4.974-6.594-11.24-11.944-18.802-16.046-7.566-4.108-16.426-6.16-26.58-6.16-9.724 0-18.37 1.944-25.932 5.836-7.568 3.89-13.888 9.076-18.964 15.56-5.080 6.484-8.914 13.882-11.508 22.206-2.594 8.316-3.89 16.906-3.89 25.77 0 8.64 1.242 17.126 3.728 25.446 2.482 8.318 6.266 15.722 11.346 22.206 5.076 6.484 11.346 11.72 18.8 15.722 7.456 3.998 16.258 5.998 26.42 5.998 9.726 0 18.316-1.894 25.772-5.672 7.456-3.784 13.776-8.864 18.964-15.236 5.186-6.376 9.078-13.726 11.67-22.042 2.594-8.322 3.89-16.912 3.89-25.77-0.002-8.65-1.248-17.134-3.73-25.452zM782.352 224.168c0.912 1.010 2.254 2.15 4.030 3.42 1.772 1.266 3.7 2.534 5.778 3.802 2.078 1.266 4.182 2.508 6.31 3.726 2.128 1.216 3.954 2.28 5.474 3.194 2.228 1.316 4.41 2.76 6.538 4.334 2.13 1.57 4.054 3.396 5.778 5.474 1.722 2.076 3.118 4.434 4.182 7.070 1.064 2.634 1.596 5.626 1.596 8.972 0 8.108-2.914 14.544-8.744 19.312-5.83 4.764-14.218 7.146-25.166 7.146-4.462 0-8.742-0.406-12.848-1.216-4.106-0.812-7.882-1.9-11.328-3.27-3.448-1.368-6.54-2.914-9.276-4.638-2.738-1.724-4.918-3.496-6.54-5.322l15.51-17.944c2.94 3.346 5.98 6.056 9.124 8.136 3.14 2.076 6.842 3.118 11.1 3.118 3.75 0 6.638-0.864 8.668-2.586 2.026-1.726 3.042-4.006 3.042-6.842 0-1.42-0.406-2.662-1.216-3.726-0.812-1.064-2.154-2.256-4.030-3.574-1.876-1.32-4.41-2.84-7.602-4.562-3.194-1.726-7.172-3.904-11.936-6.54-4.462-2.536-8.162-5.12-11.1-7.754-2.942-2.636-5.272-5.5-6.996-8.59-1.724-3.094-2.94-6.514-3.648-10.264-0.71-3.75-1.064-8.008-1.064-12.772h75.724v21.896h-41.36z" />
<glyph unicode="&#xe908;" glyph-name="twitter" d="M1024 765.504c-38.080-16.704-78.656-27.776-120.96-33.152 43.52 25.984 76.736 66.816 92.352 116.032-40.576-24.192-85.376-41.28-133.12-50.816-38.528 41.024-93.44 66.432-153.344 66.432-116.224 0-209.792-94.336-209.792-209.984 0-16.64 1.408-32.64 4.864-47.872-174.528 8.512-328.96 92.16-432.704 219.584-18.112-31.424-28.736-67.392-28.736-106.112 0-72.704 37.44-137.152 93.248-174.464-33.728 0.64-66.816 10.432-94.848 25.856 0-0.64 0-1.472 0-2.304 0-102.016 72.768-186.752 168.192-206.272-17.088-4.672-35.712-6.912-55.040-6.912-13.44 0-27.008 0.768-39.744 3.584 27.2-83.136 104.384-144.256 196.16-146.24-71.424-55.872-162.112-89.536-260.288-89.536-17.216 0-33.728 0.768-50.24 2.88 92.992-59.968 203.2-94.208 322.048-94.208 386.304 0 597.504 320 597.504 597.376 0 9.28-0.32 18.24-0.768 27.136 41.664 29.568 76.672 66.496 105.216 108.992z" />
<glyph unicode="&#xe909;" glyph-name="facebook" d="M682.539 789.973h93.483v162.816c-16.128 2.219-71.595 7.211-136.192 7.211-134.784 0-227.115-84.779-227.115-240.597v-143.403h-148.736v-182.016h148.736v-457.984h182.357v457.941h142.72l22.656 182.016h-165.419v125.397c0.043 52.608 14.208 88.619 87.509 88.619z" />
<glyph unicode="&#xe90a;" glyph-name="black-back-closed-envelope-shape" d="M932.564 45.713c23.018 0 42.963 7.6 59.918 22.607l-290.116 290.127c-6.961-4.984-13.707-9.831-20.080-14.44-21.711-15.996-39.332-28.478-52.863-37.422-13.529-8.965-31.529-18.102-53.998-27.431-22.484-9.34-43.431-13.996-62.863-13.996h-1.138c-19.433 0-40.38 4.653-62.863 13.996-22.482 9.329-40.483 18.467-53.998 27.431-13.529 8.944-31.14 21.425-52.863 37.422-6.053 4.438-12.767 9.307-20.025 14.518l-290.171-290.205c16.953-15.007 36.911-22.607 59.927-22.607h841.132zM57.72 541.14c-21.709 14.473-40.96 31.049-57.72 49.721v-441.404l255.707 255.707c-51.156 35.714-117.068 80.987-197.986 135.977zM966.858 541.14c-77.833-52.68-143.984-98.032-198.462-136.079l255.604-255.616v441.415c-16.388-18.296-35.433-34.861-57.142-49.721zM932.564 850.287h-841.13c-29.345 0-51.905-9.909-67.71-29.707-15.817-19.807-23.713-44.578-23.713-74.285 0-23.996 10.478-49.996 31.425-78.007 20.947-28 43.236-49.994 66.856-65.992 12.949-9.149 51.998-36.296 117.148-81.432 35.169-24.371 65.754-45.614 92.036-63.945 22.403-15.609 41.723-29.127 57.674-40.345 1.831-1.285 4.711-3.345 8.533-6.077 4.118-2.958 9.329-6.711 15.758-11.354 12.38-8.954 22.665-16.191 30.856-21.72 8.18-5.531 18.091-11.709 29.718-18.569 11.618-6.851 22.575-12.003 32.86-15.429 10.287-3.425 19.809-5.142 28.569-5.142h1.138c8.758 0 18.283 1.718 28.571 5.142 10.283 3.426 21.231 8.567 32.858 15.429 11.616 6.86 21.514 13.051 29.72 18.569 8.191 5.529 18.476 12.765 30.858 21.72 6.416 4.642 11.627 8.398 15.745 11.344 3.824 2.744 6.702 4.791 8.545 6.087 12.426 8.647 31.791 22.109 57.826 40.187 47.374 32.916 117.144 81.363 209.602 145.535 27.807 19.422 51.039 42.86 69.71 70.281 18.638 27.42 27.982 56.183 27.982 86.279 0 25.145-9.060 46.66-27.14 64.581-18.1 17.898-39.534 26.851-64.296 26.851z" />
<glyph unicode="&#xe90b;" glyph-name="search" d="M751.466 299.033c50.39 68.812 80.53 153.334 80.53 244.964 0 229.374-186.625 415.999-415.999 415.999s-415.997-186.625-415.997-415.999 186.625-415.999 415.999-415.999c91.629 0 176.16 30.145 244.972 80.534l272.53-272.53 90.499 90.499c0 0.002-272.534 272.532-272.534 272.532zM415.999 255.998c-158.812 0-287.999 129.186-287.999 287.999s129.186 287.999 287.999 287.999 287.999-129.186 287.999-287.999-129.188-287.999-287.999-287.999z" />
<glyph unicode="&#xe90c;" glyph-name="pinterest" d="M512 960c-282.76 0-512-229.229-512-512s229.24-512 512-512 512 229.229 512 512-229.24 512-512 512zM570.915 277.937c-47.361 0-91.903 25.603-107.156 54.673 0 0-25.477-101.038-30.83-120.533-18.992-68.93-74.859-137.881-79.207-143.528-3.027-3.928-9.721-2.703-10.413 2.514-1.184 8.779-15.452 95.737 1.33 166.658 8.391 35.617 56.391 238.993 56.391 238.993s-13.975 28.002-13.975 69.402c0 65.002 37.671 113.525 84.581 113.525 39.881 0 59.135-29.95 59.135-65.85 0-40.101-25.519-100.064-38.687-155.627-11.010-46.523 23.308-84.476 69.192-84.476 83.104 0 139.034 106.726 139.034 233.2 0 96.104-64.698 168.072-182.466 168.072-133.010 0-215.957-99.215-215.957-210.059 0-38.194 11.293-65.169 28.955-86.006 8.098-9.585 9.25-13.44 6.306-24.44-2.127-8.077-6.914-27.499-8.946-35.177-2.923-11.125-11.911-15.085-21.978-10.989-61.241 25.006-89.798 92.113-89.798 167.548 0 124.588 105.061 273.982 313.454 273.982 167.454 0 277.669-121.162 277.669-251.249 0.010-172.095-95.664-300.632-236.636-300.632z" />
<glyph unicode="&#xe90d;" glyph-name="info" d="M511.978 960c-282.732 0-511.978-229.246-511.978-511.978s229.246-512.022 511.978-512.022 512.022 229.289 512.022 512.022-229.289 511.978-512.022 511.978zM618.561 166.503c-26.353-10.403-47.332-18.291-63.065-23.752-15.69-5.461-33.938-8.192-54.7-8.192-31.901 0-56.737 7.802-74.422 23.362s-26.483 35.282-26.483 59.251c0 9.319 0.65 18.855 1.95 28.564 1.344 9.709 3.468 20.632 6.372 32.898l32.985 116.508c2.904 11.183 5.418 21.802 7.412 31.684 1.994 9.969 2.947 19.115 2.947 27.437 0 14.824-3.077 25.226-9.189 31.078-6.198 5.851-17.858 8.712-35.239 8.712-8.495 0-17.251-1.257-26.223-3.901-8.886-2.731-16.601-5.201-22.929-7.629l8.712 35.889c21.585 8.799 42.26 16.341 61.982 22.582 19.721 6.328 38.359 9.449 55.914 9.449 31.684 0 56.13-7.715 73.338-22.972 17.121-15.3 25.746-35.195 25.746-59.641 0-5.071-0.607-14-1.777-26.743-1.17-12.786-3.381-24.446-6.588-35.152l-32.811-116.162c-2.687-9.319-5.071-19.982-7.238-31.901-2.124-11.92-3.164-21.022-3.164-27.133 0-15.43 3.424-25.963 10.359-31.554 6.848-5.591 18.855-8.409 35.845-8.409 8.019 0 16.991 1.43 27.133 4.204 10.056 2.774 17.338 5.245 21.932 7.368l-8.799-35.845zM612.753 637.998c-15.3-14.217-33.722-21.325-55.263-21.325-21.499 0-40.050 7.108-55.48 21.325-15.344 14.217-23.102 31.511-23.102 51.709 0 20.155 7.802 37.492 23.102 51.839 15.43 14.39 33.982 21.542 55.48 21.542 21.542 0 40.006-7.152 55.263-21.542 15.3-14.347 22.972-31.684 22.972-51.839 0-20.242-7.672-37.492-22.972-51.709z" />
<glyph unicode="&#xe90e;" glyph-name="cross" d="M769.912 447.999l240.56 240.56c18.038 18.038 18.038 47.284 0 65.32l-192.59 192.59c-18.038 18.038-47.284 18.038-65.32 0l-240.56-240.56-240.564 240.56c-18.038 18.038-47.284 18.038-65.32 0l-192.588-192.586c-18.038-18.038-18.038-47.284 0-65.32l240.56-240.56-240.56-240.564c-18.038-18.038-18.038-47.284 0-65.32l192.59-192.588c18.038-18.038 47.284-18.038 65.32 0l240.56 240.56 240.56-240.56c18.038-18.038 47.284-18.038 65.32 0l192.59 192.588c18.038 18.038 18.038 47.284 0 65.32l-240.558 240.56z" />
<glyph unicode="&#xe90f;" glyph-name="check" d="M392.108 65.466c-9.775-9.832-23.111-15.318-36.964-15.318s-27.189 5.486-36.964 15.318l-295.204 295.251c-30.636 30.636-30.636 80.313 0 110.892l36.964 36.973c30.645 30.636 80.266 30.636 110.901 0l184.302-184.312 498.012 498.021c30.645 30.636 80.313 30.636 110.901 0l36.964-36.973c30.636-30.636 30.636-80.304 0-110.892z" />
<glyph unicode="&#xe910;" glyph-name="clock" d="M512 960c-282.312 0-512-229.688-512-512s229.688-512 512-512 512 229.688 512 512-229.688 512-512 512zM602.531 266.97l-154.531 154.531v282.5h128v-229.5l117.031-117.031z" />
<glyph unicode="&#xe911;" glyph-name="alert" d="M1002.724 192.1l-361.73 664.952c-58.118 97.842-199.792 97.972-257.988 0l-361.712-664.952c-59.412-99.978 12.518-226.582 128.964-226.582h723.472c116.348 0 188.406 126.502 128.994 226.582zM512 85.518c-33.076 0-60 26.924-60 60s26.924 60 60 60c33.076 0 60-26.924 60-60s-26.924-60-60-60zM572 325.518c0-33.076-26.924-60-60-60s-60 26.924-60 60v300c0 33.076 26.924 60 60 60s60-26.924 60-60v-300z" />
<glyph unicode="&#xe912;" glyph-name="open-menu" d="M929.766 831.466h-835.532c-51.96 0-94.234-42.272-94.234-94.298 0-51.96 42.274-94.234 94.234-94.234h835.532c51.96 0 94.234 42.274 94.234 94.234 0 52.026-42.274 94.298-94.234 94.298zM929.766 542.266h-835.532c-51.96 0-94.234-42.272-94.234-94.298 0-51.96 42.274-94.234 94.234-94.234h835.532c51.96 0 94.234 42.274 94.234 94.234 0 52.026-42.274 94.298-94.234 94.298zM929.766 253.066h-835.532c-51.96 0-94.234-42.274-94.234-94.298 0-51.96 42.274-94.234 94.234-94.234h835.532c51.96 0 94.234 42.274 94.234 94.234 0 52.024-42.274 94.298-94.234 94.298z" />
<glyph unicode="&#xe913;" glyph-name="quote" d="M327.742 488.033c-25.221 7.261-50.442 10.945-74.975 10.945-37.885 0-69.497-8.658-94.009-19.259 23.631 86.511 80.399 235.785 193.485 252.595 10.473 1.558 19.055 9.13 21.912 19.324l24.716 88.402c2.084 7.476 0.849 15.478-3.416 21.966s-11.117 10.817-18.797 11.869c-8.346 1.139-16.853 1.719-25.285 1.719-135.739 0-270.168-141.679-326.893-344.541-33.298-119.015-43.062-297.945 38.959-410.569 45.898-63.020 112.86-96.673 199.028-100.035 0.354-0.011 0.698-0.021 1.053-0.021 106.318 0 200.596 71.602 229.275 174.107 17.133 61.28 9.388 125.546-21.827 181.003-30.882 54.835-81.742 94.804-143.226 112.495zM993.269 375.528c-30.882 54.846-81.742 94.814-143.226 112.506-25.221 7.261-50.442 10.945-74.964 10.945-37.885 0-69.508-8.658-94.020-19.259 23.631 86.511 80.399 235.785 193.496 252.595 10.473 1.558 19.045 9.13 21.912 19.324l24.716 88.402c2.084 7.476 0.849 15.478-3.416 21.966-4.254 6.488-11.107 10.817-18.797 11.869-8.335 1.139-16.843 1.719-25.285 1.719-135.739 0-270.168-141.679-326.904-344.541-33.288-119.015-43.052-297.945 38.981-410.59 45.887-63.009 112.86-96.673 199.017-100.024 0.354-0.011 0.698-0.021 1.063-0.021 106.308 0 200.596 71.602 229.275 174.107 17.111 61.28 9.356 125.556-21.848 181.003z" />
<glyph unicode="&#xe914;" glyph-name="coding" d="M1013.526 474.341l-236.801 250.881c-14.554 15.436-38.848 16.14-54.284 1.574-15.412-14.554-16.128-38.86-1.562-54.284l211.931-224.513-211.931-224.539c-14.566-15.424-13.85-39.718 1.562-54.284 7.424-7.002 16.908-10.47 26.356-10.47 10.202 0 20.39 4.044 27.93 12.020l236.801 250.893c13.962 14.808 13.962 37.926-0.002 52.722zM303.134 223.472l-211.917 224.527 211.917 224.525c14.554 15.424 13.85 39.732-1.574 54.284-15.412 14.554-39.732 13.85-54.284-1.574l-236.801-250.881c-13.964-14.796-13.964-37.926 0-52.724l236.813-250.893c7.552-8 17.728-12.032 27.93-12.032 9.446 0 18.932 3.482 26.342 10.484 15.438 14.554 16.128 38.86 1.574 54.284zM574.125 854.605c-20.954 3.174-40.564-11.212-43.764-32.166l-112.641-737.284c-3.2-20.966 11.2-40.564 32.166-43.764 1.972-0.294 3.916-0.436 5.85-0.436 18.65 0 35.008 13.606 37.914 32.602l112.641 737.284c3.2 20.968-11.2 40.564-32.166 43.764z" />
<glyph unicode="&#xe915;" glyph-name="up-arrow" d="M1007.629 276.352l-456.111 456.103c-10.54 10.54-24.593 16.326-39.903 16.326-15.002 0-29.063-5.786-39.586-16.326l-455.686-455.67c-10.54-10.548-16.342-24.609-16.342-39.611s5.794-29.071 16.342-39.611l33.559-33.559c10.54-10.54 24.609-16.359 39.611-16.359s29.063 5.819 39.611 16.359l382.65 382.65 383.074-383.091c10.54-10.531 24.601-16.342 39.611-16.342 15.002 0 29.055 5.811 39.603 16.342l33.567 33.575c21.829 21.837 21.829 57.377 0 79.214z" />
<glyph unicode="&#xe916;" glyph-name="comment" d="M149.091-2.796h-72.556l51.305 51.305c27.663 27.663 44.937 63.642 49.582 102.673-118.463 77.741-177.421 190.364-177.421 308.433 0 217.823 200.199 439.181 513.735 439.181 332.156 0 510.265-203.692 510.265-420.098 0-217.833-179.99-421.388-510.265-421.388-57.856 0-118.229 7.724-172.13 21.895-51.024-52.334-120.158-82.001-192.514-82.001z" />
<glyph unicode="&#xe917;" glyph-name="user" d="M504.701 466.736c67.765 0 126.445 24.305 174.39 72.258 47.945 47.945 72.25 106.609 72.25 174.382 0 67.75-24.305 126.421-72.258 174.382-47.953 47.937-106.625 72.242-174.382 72.242-67.773 0-126.437-24.305-174.382-72.25s-72.258-106.617-72.258-174.374c0-67.773 24.312-126.445 72.265-174.39 47.953-47.937 106.625-72.25 174.374-72.25zM936.254 172.597c-1.383 19.953-4.18 41.719-8.297 64.703-4.156 23.156-9.508 45.047-15.914 65.054-6.617 20.68-15.617 41.101-26.742 60.672-11.547 20.312-25.109 38-40.328 52.554-15.914 15.227-35.398 27.469-57.929 36.398-22.453 8.883-47.336 13.383-73.953 13.383-10.453 0-20.562-4.289-40.086-17-12.016-7.836-26.070-16.898-41.758-26.922-13.414-8.547-31.586-16.555-54.031-23.805-21.898-7.086-44.133-10.68-66.078-10.68s-44.172 3.594-66.093 10.68c-22.422 7.242-40.594 15.25-53.992 23.797-15.539 9.93-29.601 18.992-41.797 26.937-19.5 12.711-29.617 17-40.070 17-26.625 0-51.5-4.508-73.945-13.398-22.516-8.914-42.008-21.156-57.937-36.398-15.211-14.562-28.781-32.242-40.312-52.547-11.117-19.57-20.117-39.984-26.742-60.679-6.398-20.008-11.75-41.89-15.906-65.047-4.117-22.953-6.914-44.726-8.297-64.726-1.359-19.594-2.047-39.93-2.047-60.469 0-53.453 16.992-96.726 50.5-128.64 33.094-31.492 76.883-47.469 130.132-47.469h493.061c53.25 0 97.023 15.969 130.124 47.469 33.515 31.89 50.508 75.172 50.508 128.648-0.008 20.633-0.703 40.984-2.070 60.484z" />
</font>
</defs>
</svg>
